Категория - Стеклянные ногти

Какие бывают пилочки для ногтей

Как выбрать правильную пилочку для ногтей?Подпиливание ногтей и придание им подходящей формы и длины — одна из основных составляющих маникюра. Подобрав неправильную пилку можно не только не достичь желаемого результата, но и серьёзно навредить ногтям. Важно использовать только подходящие пилки и выбирать их по типу ногтей, материалу, функциям и форме.
Читать дальше

Нарастить ногти с рисунком фото

Несмотря на то, что натуральные ногти уже не первый сезон удерживают лидирующие позиции, многие девушки не изменяют своим привычкам и отдают предпочтение нарощенным. Безусловно, они требуют особо бережного отношения. Но это компенсируется тем, что такой маникюр всегда ассоциируются с женственностью, сексуальностью и кроме этого позволяет реализовать любой вид дизайна.Благодаря этому нарощенные ногти не перестают быть актуальными.
Читать дальше

Фото дизайна ногтей шеллаком поэтапно

Современная успешная женщина отличается красивым ухоженным видом и идеальным маникюром.Сегодня, к счастью, мы имеем возможность баловать себя походами к мастеру маникюрного искусства, который приводит в порядок наши ручки. Но наличие красивого маникюра, всего лишь пол дела.
Читать дальше

Канеспор набор для лечения ногтей отзывы форум

для размышленияВопрос к тем врачам, кто имел опыт работы с разными ,,помощниками-кератолитиками” для удаления пораженных участков ногтя и последующего очищения ногтевого ложа при лечении онихомикоза. Особенно интересует не столько удаление самого ногтя, сколько последующее очищение ложа от твердых наслоений. Набор Канеспор в принципе справился с удалением ногтя, хотя можно было элементарно после горячей ванночки срезать ножницами, что и было благополучно проделано с другим ногтем.
Читать дальше

Скачать уроки дизайна для ногтей

MediainfoGeneral Complete name : E:\!torents\Design.eto.prosto.RUS.DVDRip.by.gera.avi Format : AVI Format/Info : Audio Video Interleave File size : 701 MiB Duration : 1 h 17 min Overall bit rate : 1 265 kb/s Genre : Documentary Writing application : Nandub v1.0rc2 Original source form/Name : Interactive Comment : DVDRip by geraVideo ID : 0 Format : MPEG-4 Visual Format profile : Advanced Simple@L5 Format settings, BVOP : 2 Format settings, QPel : No Format settings, GMC : No warppoints Format settings, Matrix : Default (MPEG) Muxing mode : Packed bitstream Codec ID : XVID Codec ID/Hint : XviD Duration : 1 h 17 min Bit rate : 1 124 kb/s Width : 720 pixels Height : 400 pixels Display aspect ratio : 16:9 Frame rate : 25.000 FPS Color space : YUV Chroma subsampling : 4:2:0 Bit depth : 8 bits Scan type : Progressive Compression mode : Lossy Bits/(Pixel*Frame) : 0.156 Stream size : 623 MiB (89%) Writing library : XviD 1.1.2 (UTC 2006-11-01)Audio ID : 1 Format : MPEG Audio Format version : Version 1 Format profile : Layer 3 Mode : Joint stereo Mode extension : MS Stereo Codec ID : 55 Codec ID/Hint : MP3 Duration : 1 h 17 min Bit rate mode : Constant Bit rate : 128 kb/s Channel(s) : 2 channels Sampling rate : 48.0 kHz Compression mode : Lossy Delay relative to video : 21 ms Stream size : 70.9 MiB (10%) Alignment : Aligned on interleaves Interleave, duration : 24 ms (0.60 video frame) Interleave, preload duration : 544 msИсточник: http://maintracker.org/forum/viewtopic.php?t=557990.
Читать дальше

Отзывы о препаратах о лечении ногтей ног

Мария, сочувствую. Ну если уж совсем нет выхода, то для народных средств тоже правила существуют. Купите яблочный уксус, смочите в нем ватку и на ночь делайте компресс на больной ноготь.
Читать дальше

Как удалить лак для ногтей с белой одежды

Как вывести лак для ногтей с одежды?Каждая представительница слабого пола хотя бы раз делала себе маникюр дома. С одной стороны, это очень удобно и практично, да и сама процедура не требует особых умений или знаний. Но с другой стороны, без конфузов тоже не обойтись.
Читать дальше

Лечение грибка ногтей к какому врачу обратиться

Микоз относят к грибковым заболеваниям. Недуг диагностируется у большей части человечества.
Читать дальше

Блестящие лаки для ногтей отзывы

Приходишь в магазин, покупаешь самый красивый лак, а дома… ждет разочарование. И цвет не тот, и качество не очень...
Читать дальше

Запечатывание ногтей гелем при наращивании

Вопросы про запечатывание.(Востановленная) Прошу совета. Делаю запечатывание, потом коррекцию. При коррекции такая ситуация происходит.
Читать дальше

1 2 3 4 5 6